> 張學友<學友光年>世界巡迴演唱會香港紅館站2007【45.89G】1080P
歌 手 : 張學友
主音唯一碼 : lgych-00041
視頻大小 : 45.89G主音網微信 : zhuyinwang01
創建時間 : 2018-09-10主音網QQ客服 :不在接受qq咨詢,有事找微信。說明來意。
視頻目錄 : 中國香港演唱會
主音網郵箱 :bimuyu#www.eevcv.icu(請把#改成@)
主音唯一碼
lgych-00041
文件大小
45.89G
百度網盤下載
提取碼
xr64
文件解壓密碼
張學友<學友光年>世界巡迴演唱會香港紅館站2007【45.89G】1080P 視頻截圖












張學友<學友光年>世界巡迴演唱會香港紅館站2007【45.89G】1080P 視頻劇情截圖
張學友<學友光年>世界巡迴演唱會香港紅館站2007【45.89G】1080P 演唱會曲目介紹

演唱會曲目介紹:

1. 張學友《愛火花》
2. 張學友《頭發亂了》
3. 張學友《和好不如初》
4. 張學友《聽天由命》
5. 張學友《一千個傷心的理由》
6. 張學友《情已逝》
7. 張學友《只想一生跟你走》
8. 張學友《走不掉》
9. 張學友《餓狼傳說》
10. 張學友《搖搖》
11. 張學友《講你知》
12. 張學友《給朋友》
13. 張學友《在你身邊》
14. 張學友《紅色》
15. 張學友《屈到病》
16. 張學友《小城大事》
17. 張學友《天黑黑》
18. 張學友《每天愛你多一些》
19. 張學友《吻別》
20. 張學友《忘記他》
21. 張學友《是否在戀愛》
22. 張學友《愛是永恒》
23. 張學友《男人本該妒忌》
24. 張學友《你是愛我的》
25. 張學友《一個人的犧牲》
26. 張學友《命運曲》
27. 張學友《如果愛》
28. 張學友《今晚要盡情》
29. 張學友《非常夏日》
30. 張學友《暗戀你》
31. 張學友《夕陽醉了》
32. 張學友《你的名字我的姓氏》
33. 張學友《還是覺得你最好》
34. 張學友《月半彎》
35. 張學友《真情流露》
36. 張學友《祝?!?
37. 張學友《太陽星辰》
主音唯一碼
lgych-00041
文件大小
45.89G
百度網盤下載
提取碼
xr64
文件解壓密碼
張學友<學友光年>世界巡迴演唱會香港紅館站2007【45.89G】1080P 演唱會視頻參數信息

演唱會參數信息:

DISC INFO:

Disc Title:     張學友<學友光年>世界巡迴演唱會香港站2007【45.89G】1080P藍光原盤
Disc Size:      49,272,427,588 bytes
Protection:     AACS
BD-Java:        No
Extras:         50Hz Content
BDInfo:         0.5.8

PLAYLIST REPORT:

Name:                   00001.MPLS
Length:                 3:07:55.879 (h:m:s.ms)
Size:                   49,021,802,496 bytes
Total Bitrate:          34.78 Mbps

VIDEO:

Codec                   Bitrate             Description     
-----                   -------             -----------     
MPEG-4 AVC Video        21488 kbps          1080i / 25 fps / 16:9 / High Profile 4.1

AUDIO:

Codec                           Language        Bitrate         Description     
-----                           --------        -------         -----------     
LPCM Audio                      Chinese         4608 kbps       5.1 / 48 kHz / 4608 kbps / 16-bit
DTS-HD Master Audio             Chinese         6141 kbps       5.1 / 96 kHz / 6141 kbps / 24-bit (DTS Core: 6.1 / 48 kHz / 1509 kbps / 24-bit)
Dolby Digital Audio             Chinese         384 kbps        5.1 / 48 kHz / 384 kbps / DN -4dB
Dolby Digital Audio             Chinese         192 kbps        2.0 / 48 kHz / 192 kbps / DN -4dB

SUBTITLES:

Codec                           Language        Bitrate         Description     
-----                           --------        -------         -----------     
Presentation Graphics           Chinese         23.710 kbps                     
Presentation Graphics           Chinese         21.204 kbps                     

FILES:

Name            Time In         Length          Size            Total Bitrate   
----            -------         ------          ----            -------------   
00003.M2TS      0:00:00.000     1:11:38.160     18,644,201,472  34,702         
00004.M2TS      1:11:38.160     1:03:03.240     16,388,284,416  34,654         
00005.M2TS      2:14:41.400     0:53:14.480     13,989,316,608  35,034         

為您推薦 張學友 相關的演唱會視頻
主音唯一碼
lgych-00041
文件大小
45.89G
百度網盤下載
提取碼
xr64
文件解壓密碼
最新天氣預報 ℃